Wake 2024 1080p WEB-DL DD 5 1 H264-BobDobbs



Size :2.2 GB
Peers : Seeders : 115      Leechers : 25
Added : 3 weeks ago » by mazemaze16 » in Movies
Language : English
Last Updated :1 week ago
Info_Hash :E61605F4CF0DB64B8A813105E92F93879601D47E

770
0



Torrent Description



Wake 2024 1080p WEB-DL DD 5 1 H264-BobDobbs




Format : Matroska
Format version : Version 4
File size : 2.17 GiB
Duration : 1 h 24 min
Overall bit rate : 3 671 kb/s
Frame rate : 24.000 FPS
Encoded date : 2024-06-22 19:40:14 UTC
Writing application : mkvmerge v85.0 ('Shame For You') 64-bit
Writing library : libebml v1.4.5 + libmatroska v1.7.1

Video
ID : 1
Format : AVC
Format/Info : Advanced Video Codec
Format profile : High@L4
Format settings : CABAC / 4 Ref Frames
Format settings, CABAC : Yes
Format settings, Reference frames : 4 frames
Codec ID : V_MPEG4/ISO/AVC
Duration : 1 h 24 min
Bit rate mode : Constant
Bit rate : 2 958 kb/s
Nominal bit rate : 10 000 kb/s
Width : 1 920 pixels
Height : 816 pixels
Display aspect ratio : 2.35:1
Frame rate mode : Constant
Frame rate : 24.000 FPS
Color space : YUV
Chroma subsampling : 4:2:0
Bit depth : 8 bits
Scan type : Progressive
Bits/(Pixel*Frame) : 0.079
Stream size : 1.75 GiB (81%)
Default : Yes
Forced : No
Color range : Limited
Color primaries : BT.709
Transfer characteristics : BT.709
Matrix coefficients : BT.709

Audio
ID : 2
Format : E-AC-3
Format/Info : Enhanced AC-3
Commercial name : Dolby Digital Plus
Codec ID : A_EAC3
Duration : 1 h 24 min
Bit rate mode : Constant
Bit rate : 640 kb/s
Channel(s) : 6 channels
Channel layout : L R C LFE Ls Rs
Sampling rate : 48.0 kHz
Frame rate : 31.250 FPS (1536 SPF)
Compression mode : Lossy
Stream size : 388 MiB (17%)
Language : English
Service kind : Complete Main
Default : Yes
Forced : No

Text
ID : 3
Format : UTF-8
Codec ID : S_TEXT/UTF8
Codec ID/Info : UTF-8 Plain Text
Language : English (US)
Default : No
Forced : No


Screens: