Stevie Van Zandt Disciple 2024 1080p AMZN WEB-DL DDP5 1 H 264-FLUX



Size :9.0 GB
Peers : Seeders : 0      Leechers : 0
Added : 3 weeks ago » by mazemaze16 » in Movies
Language : English
Last Updated :3 weeks ago
Info_Hash :D2BE793F33CCAE2879C42522D1EDAB1BD4F63B98

455
0



Torrent Description



Stevie Van Zandt Disciple 2024 1080p AMZN WEB-DL DDP5 1 H 264-FLUX




Format : Matroska
Format version : Version 4
File size : 9.03 GiB
Duration : 2 h 26 min
Overall bit rate : 8 819 kb/s
Frame rate : 23.976 FPS
Writing application : mkvmerge v79.0 ('Funeral Pyres') 64-bit
Writing library : libebml v1.4.4 + libmatroska v1.7.1

Video
ID : 1
Format : AVC
Format/Info : Advanced Video Codec
Format profile : High@L4
Format settings : CABAC / 4 Ref Frames
Format settings, CABAC : Yes
Format settings, Reference frames : 4 frames
Codec ID : V_MPEG4/ISO/AVC
Duration : 2 h 26 min
Bit rate mode : Constant
Bit rate : 8 003 kb/s
Nominal bit rate : 10 000 kb/s
Width : 1 920 pixels
Height : 1 080 pixels
Display aspect ratio : 16:9
Frame rate mode : Constant
Frame rate : 23.976 (24000/1001) FPS
Color space : YUV
Chroma subsampling : 4:2:0
Bit depth : 8 bits
Scan type : Progressive
Bits/(Pixel*Frame) : 0.161
Stream size : 8.20 GiB (91%)
Language : English (US)
Default : Yes
Forced : No
Color range : Limited
Color primaries : BT.709
Transfer characteristics : BT.709
Matrix coefficients : BT.709

Audio
ID : 2
Format : E-AC-3
Format/Info : Enhanced AC-3
Commercial name : Dolby Digital Plus
Codec ID : A_EAC3
Duration : 2 h 26 min
Bit rate mode : Constant
Bit rate : 640 kb/s
Channel(s) : 6 channels
Channel layout : L R C LFE Ls Rs
Sampling rate : 48.0 kHz
Frame rate : 31.250 FPS (1536 SPF)
Compression mode : Lossy
Stream size : 671 MiB (7%)
Language : English (US)
Service kind : Complete Main
Default : Yes
Forced : No

Text #1
ID : 3
Format : UTF-8
Codec ID : S_TEXT/UTF8
Codec ID/Info : UTF-8 Plain Text
Language : English (US)
Default : No
Forced : No

Screens: