Furiosa A Mad Max Saga 2024 1080p WEB-DL DDP5 1 Atmos H 264-FLUX



Size :7.6 GB
Peers : Seeders : 5      Leechers : 268
Added : 3 weeks ago » by mazemaze16 » in Movies
Language : English
Last Updated :3 weeks ago
Info_Hash :6568804329A9E1940B08683A239AF69EB76177EB

747
0



Torrent Description



Furiosa A Mad Max Saga 2024 1080p WEB-DL DDP5 1 Atmos H 264-FLUX




Format : Matroska
Format version : Version 4
File size : 7.57 GiB
Duration : 2 h 28 min
Overall bit rate : 7 315 kb/s
Frame rate : 23.976 FPS
Writing application : mkvmerge v79.0 ('Funeral Pyres') 64-bit
Writing library : libebml v1.4.4 + libmatroska v1.7.1

Video
ID : 1
Format : AVC
Format/Info : Advanced Video Codec
Format profile : High@L4
Format settings : CABAC / 5 Ref Frames
Format settings, CABAC : Yes
Format settings, Reference frames : 5 frames
Format settings, Slice count : 8 slices per frame
Codec ID : V_MPEG4/ISO/AVC
Duration : 2 h 28 min
Bit rate : 6 401 kb/s
Width : 1 920 pixels
Height : 804 pixels
Display aspect ratio : 2.39:1
Frame rate mode : Constant
Frame rate : 23.976 (24000/1001) FPS
Color space : YUV
Chroma subsampling : 4:2:0
Bit depth : 8 bits
Scan type : Progressive
Bits/(Pixel*Frame) : 0.173
Stream size : 6.63 GiB (88%)
Language : English
Default : Yes
Forced : No
Color range : Limited
Color primaries : BT.709
Transfer characteristics : BT.709
Matrix coefficients : BT.709

Audio
ID : 2
Format : E-AC-3 JOC
Format/Info : Enhanced AC-3 with Joint Object Coding
Commercial name : Dolby Digital Plus with Dolby Atmos
Codec ID : A_EAC3
Duration : 2 h 28 min
Bit rate mode : Constant
Bit rate : 768 kb/s
Channel(s) : 6 channels
Channel layout : L R C LFE Ls Rs
Sampling rate : 48.0 kHz
Frame rate : 31.250 FPS (1536 SPF)
Compression mode : Lossy
Stream size : 814 MiB (10%)
Language : English
Service kind : Complete Main
Default : Yes
Forced : No
Complexity index : 16
Number of dynamic objects : 15
Bed channel count : 1 channel
Bed channel configuration : LFE

Text #1
ID : 3
Format : UTF-8
Codec ID : S_TEXT/UTF8
Codec ID/Info : UTF-8 Plain Text
Language : English
Default : No
Forced : No

Screens: