Hard Home 2024 1080p WEB-DL EAC3 DDP5 1 H264-FW



Size :5.3 GB
Peers : Seeders : 0      Leechers : 0
Added : 2 weeks ago » by mazemaze16 » in Movies
Language : English
Last Updated :2 weeks ago
Info_Hash :EFDCF9C01FE707A4FC4CCEE92D6DB9D501CA8AC9

804
0



Torrent Description



Hard Home 2024 1080p WEB-DL EAC3 DDP5 1 H264-FW




Format : Matroska
Format version : Version 4
File size : 5.27 GiB
Duration : 1 h 27 min
Overall bit rate : 8 663 kb/s
Frame rate : 23.976 FPS
Encoded date : 2024-06-25 18:08:38 UTC
Writing application : mkvmerge v85.0 ('Shame For You') 64-bit
Writing library : libebml v1.4.5 + libmatroska v1.7.1

Video
ID : 1
Format : AVC
Format/Info : Advanced Video Codec
Format profile : High@L4
Format settings : CABAC / 4 Ref Frames
Format settings, CABAC : Yes
Format settings, Reference frames : 4 frames
Codec ID : V_MPEG4/ISO/AVC
Duration : 1 h 27 min
Bit rate mode : Constant
Bit rate : 7 851 kb/s
Nominal bit rate : 10 000 kb/s
Width : 1 920 pixels
Height : 800 pixels
Display aspect ratio : 2.40:1
Frame rate mode : Constant
Frame rate : 23.976 (24000/1001) FPS
Color space : YUV
Chroma subsampling : 4:2:0
Bit depth : 8 bits
Scan type : Progressive
Bits/(Pixel*Frame) : 0.213
Stream size : 4.78 GiB (91%)
Default : Yes
Forced : No
Color range : Limited
Color primaries : BT.709
Transfer characteristics : BT.709
Matrix coefficients : BT.709

Audio
ID : 2
Format : E-AC-3
Format/Info : Enhanced AC-3
Commercial name : Dolby Digital Plus
Codec ID : A_EAC3
Duration : 1 h 27 min
Bit rate mode : Constant
Bit rate : 640 kb/s
Channel(s) : 6 channels
Channel layout : L R C LFE Ls Rs
Sampling rate : 48.0 kHz
Frame rate : 31.250 FPS (1536 SPF)
Compression mode : Lossy
Stream size : 399 MiB (7%)
Language : English
Service kind : Complete Main
Default : No
Forced : No


Screens: