A Quiet Place Day One 2024 1080p Clean HDTS Dual Audio X264 COLLECTiVE



Size :4.1 GB
Peers : Seeders : 2,560      Leechers : 9,902
Added : 2 weeks ago » by mazemaze16 » in Movies
Language : English
Last Updated :3 days ago
Info_Hash :9EA51E2E6468C38CFE25A6532464E9DB9C19D4CC

1,315
0



Torrent Description



A Quiet Place Day One 2024 1080p Clean HDTS Dual Audio X264 COLLECTiVE




OK German Cam By Sneakman Used
It Had Ghosting In The Video Have Reduced It
Re Coloured It To The Trailer WIth Offical
A Quite Place Colur Lut English Audio Synced
And Spanish, Also Left The German Audio
A English Sub File Has Also Been Added
The English Audio Comes From The 2 1xbet Cams

You Now Have Nice Clean Cam To Enjoy Guys

2 Samples Included

We Have Noticed There Are Files Floating Around In Our Name

COLLECTiVE They Are ARJ Files And ZIPX Files These are Not By US

We Will Never Upload Anything Like That Or Anything In A Rar

DO Not Download Them If Was Not Uploaded By Me Will1869 It Not Ours

If You Have Any Cam Audio Or Video Send Me A PM
or Email to [email protected] or [email protected]

Cheers Everyone BONKERS,MrClean,TearsHD,CXN,AMC,Will1869,Snoopy,MTZ

Screens:

Format : Matroska
Format version : Version 4 / Version 2
File size : 3.98 GiB
Duration : 1 h 28 min
Overall bit rate : 6 409 kb/s

Video
ID : 1
Format : AVC
Format/Info : Advanced Video Codec
Format profile : [email protected]
Format settings : CABAC / 4 Ref Frames
Format settings, CABAC : Yes
Format settings, ReFrames : 4 frames
Codec ID : V_MPEG4/ISO/AVC
Duration : 1 h 28 min
Bit rate : 5 447 kb/s
Width : 1 920 pixels
Height : 912 pixels
Display aspect ratio : 2.105
Frame rate mode : Constant
Frame rate : 23.976 (23976/1000) FPS

Audio #1
ID : 2
Format : AC-3
Format/Info : Audio Coding 3
Codec ID : A_AC3
Duration : 1 h 28 min
Bit rate mode : Constant
Bit rate : 192 kb/s
Channel(s) : 2 channels
Channel positions : Front: L R
Sampling rate : 48.0 kHz
Frame rate : 31.250 FPS (1536 SPF)
Bit depth : 16 bits
Compression mode : Lossy
Stream size : 122 MiB (3%)
Language : English
Service kind : Complete Main
Default : Yes
Forced : No

Audio #2
ID : 3
Format : AC-3
Format/Info : Audio Coding 3
Codec ID : A_AC3
Duration : 1 h 28 min
Bit rate mode : Constant
Bit rate : 320 kb/s
Channel(s) : 2 channels
Channel positions : Front: L R
Sampling rate : 48.0 kHz
Frame rate : 31.250 FPS (1536 SPF)
Bit depth : 16 bits
Compression mode : Lossy
Stream size : 203 MiB (5%)
Language : Spanish
Service kind : Complete Main
Default : No
Forced : No

Audio #3
ID : 4
Format : AC-3
Format/Info : Audio Coding 3
Codec ID : A_AC3
Duration : 1 h 28 min
Bit rate mode : Constant
Bit rate : 448 kb/s
Channel(s) : 2 channels
Channel positions : Front: L R
Sampling rate : 48.0 kHz
Frame rate : 31.250 FPS (1536 SPF)
Bit depth : 16 bits
Compression mode : Lossy
Stream size : 285 MiB (7%)
Title : Deutsch (Line)
Language : German
Subtitles : English Remuxed

Sources
Video : Sneakman CAM
Audio : English Cam / Spanish DTP/ German Sneakman
Endoced By - COLLECTiVE

https://www.imdb.com/title/tt13433802/

Screens: