The Watchers 2024 1080p 10bit WEBRip 6CH x265 HEVC-PSA



Size :1.5 GB
Peers : Seeders : 131      Leechers : 55
Added : 2 weeks ago » by mazemaze16 » in Movies
Language : English
Last Updated :2 weeks ago
Info_Hash :9A2771E686D0245C191D5E3B58BE38963DE1A4EE

527
0



Torrent Description



The.Watchers.2024.1080p.10bit.WEBRip.6CH.x265.HEVC-PSA




Video
ID : 1
Format : HEVC
Format/Info : High Efficiency Video Coding
Format profile : Main 10@L4@Main
Codec ID : V_MPEGH/ISO/HEVC
Duration : 1 h 41 min
Bit rate : 1 941 kb/s
Width : 1 920 pixels
Height : 1 040 pixels
Display aspect ratio : 1.85:1
Frame rate mode : Constant
Frame rate : 23.976 (24000/1001) FPS
Color space : YUV

Audio
ID : 2
Format : AAC LC SBR
Format/Info : Advanced Audio Codec Low Complexity with Spectral Band Replication
Commercial name : HE-AAC
Format settings : Explicit
Codec ID : A_AAC-2
Duration : 1 h 41 min
Bit rate : 207 kb/s
Channel(s) : 6 channels
Channel layout : C L R Ls Rs LFE
Sampling rate : 48.0 kHz
Frame rate : 23.438 FPS (2048 SPF)
Compression mode : Lossy
Delay relative to video : 23 ms
Stream size : 150 MiB (10%)
Language : English
Default : Yes
Forced : No

Text #1
ID : 3
Format : UTF-8
Codec ID : S_TEXT/UTF8
Codec ID/Info : UTF-8 Plain Text
Duration : 1 h 34 min
Bit rate : 56 b/s
Count of elements : 1392
Stream size : 39.2 KiB (0%)
Title : English
Language : English
Default : Yes
Forced : No

Screens: