A Quiet Place Day One 2024 1080p TELESYNC x264 COLLECTiVE



Size :5.6 GB
Peers : Seeders : 960      Leechers : 1,118
Added : 1 week ago » by mazemaze16 » in Movies
Language : English
Last Updated :9 hours ago
Info_Hash :401CF39FC513AE4154326D23911A12598C775148

1,886
0



Torrent Description



A Quiet Place Day One 2024 1080p TELESYNC x264 COLLECTiVE




THE SOURCE NAME IS TELESYNC. Don't complain about labeling. We also used most of the audio with no dialogue from a LINE source.

THIS CAM HAS HARDCODED SPANISH SUBTITLES! There is nothing we can do.

This movie does not have a lot of dialogue so we mixed our own CAM audio and REEL Line audio at different places.
Audios were syncronized by CxN and mixing was done by Snoopy.
German/Spanish on screen text has been replaced by english text.

We've taken the German REEL TS CAM as that's the best one yet, synced our OWN English audio, and added other spanish audio.

ALL WORK DONE BY CxN/Snoopy for this release.

PSA: ANY FAKE FILES GOING AROUND ON BT4G THAT ARE .zipx OR .arj ARE VIRUSES. DO Not Download Them All Uploads WIll Be By Me Will1869

Encoded by - CxN/REEL

If You Have Any Cam Audio Or Video Send Me A PM
or Email to [email protected] or [email protected]

Cheers Everyone BONKERS,MrClean,TearsHD,CXN,AMC,Will1869,Snoopy,MTZ

General

Complete name : A.Quiet.Place.Day.One.2024.1080p.TELESYNC.x264.COLLECTiVE.mkv
Format : Matroska
Format version : Version 4
File size : 5.64 GiB
Duration : 1 h 31 min
Overall bit rate : 8 805 kb/s

Video
ID : 1
Format : AVC
Format/Info : Advanced Video Codec
Format profile : [email protected]
Format settings : CABAC / 4 Ref Frames
Format settings, CABAC : Yes
Format settings, Reference frames : 4 frames
Format settings, GOP : M=1, N=15
Codec ID : V_MPEG4/ISO/AVC
Duration : 1 h 31 min
Bit rate : 7 778 kb/s
Width : 1 920 pixels
Height : 800 pixels
Display aspect ratio : 2.40:1
Frame rate mode : Constant
Frame rate : 24.000 FPS

Audio #1
ID : 2
Format : AC-3
Format/Info : Audio Coding 3
Commercial name : Dolby Digital
Codec ID : A_AC3
Duration : 1 h 31 min
Bit rate mode : Constant
Bit rate : 384 kb/s
Channel(s) : 2 channels
Channel layout : L R
Sampling rate : 48.0 kHz
Frame rate : 31.250 FPS (1536 SPF)
Compression mode : Lossy
Stream size : 252 MiB (4%)
Language : English
Service kind : Complete Main
Default : Yes
Forced : No

Audio #2
ID : 3
Format : AC-3
Format/Info : Audio Coding 3
Commercial name : Dolby Digital
Codec ID : A_AC3
Duration : 1 h 31 min
Bit rate mode : Constant
Bit rate : 192 kb/s
Channel(s) : 2 channels
Channel layout : L R
Sampling rate : 48.0 kHz
Frame rate : 31.250 FPS (1536 SPF)
Compression mode : Lossy
Delay relative to video : 84 ms
Stream size : 126 MiB (2%)
Language : Spanish
Service kind : Complete Main
Default : No
Forced : No

Audio #3
ID : 4
Format : AC-3
Format/Info : Audio Coding 3
Commercial name : Dolby Digital
Codec ID : A_AC3
Duration : 1 h 31 min
Bit rate mode : Constant
Bit rate : 448 kb/s
Channel(s) : 2 channels
Channel layout : L R
Sampling rate : 48.0 kHz
Frame rate : 31.250 FPS (1536 SPF)
Compression mode : Lossy
Delay relative to video : 84 ms
Stream size : 294 MiB (5%)
Language : German
Subtitles : English SRT File Included For Thoses Who Want It

Sources
Video : A.Quiet.Place.Tag.Eins.2024.German.1080p.TELESYNC.x264-REEL(THX!)
Audio : English MIC (OWN)/ GERMAN LINE MIXING
Audio : Spanish MIC (THX DTP!)
Audio : German LINE (THX REEL)
Endoced By - COLLECTiVE

https://www.imdb.com/title/tt13433802/

Screens: