Maliko (2024) Vivamax Explicit 1080p WEBRip x264 AAC - QRips



Size :922.0 MB
Peers : Seeders : 382      Leechers : 263
Added : 1 week ago » by mazemaze16 » in Movies
Language : Tagalog
Last Updated :4 days ago
Info_Hash :5F725F8FBC5C6B63284873568B562ACC69BAF88B

1,568
0



Torrent Description



Maliko (2024) Vivamax  Explicit 1080p WEBRip x264 AAC - QRips




Video
ID                                       : 1
Format                                   : AVC
Format/Info                              : Advanced Video Codec
Format profile                           : [email protected]
Format settings                          : CABAC / 4 Ref Frames
Format settings, CABAC                   : Yes
Format settings, Reference frames        : 4 frames
Codec ID                                 : V_MPEG4/ISO/AVC
Duration                                 : 48 min 54 s
Bit rate                                 : 2 500 kb/s
Width                                    : 1 920 pixels
Height                                   : 804 pixels

Audio
ID                                       : 2
Format                                   : AAC LC
Format/Info                              : Advanced Audio Codec Low Complexity
Codec ID                                 : A_AAC-2
Duration                                 : 48 min 54 s
Bit rate                                 : 223 kb/s
Channel(s)                               : 6 channels
Channel layout                           : C L R Ls Rs LFE
Sampling rate                            : 48.0 kHz
Frame rate                               : 46.875 FPS (1024 SPF)
Compression mode                         : Lossy
Delay relative to video                  : -33 ms
Stream size                              : 78.0 MiB (8%)
Language                                 : Tagalog
Default                                  : Yes
Forced                                   : No

Text
ID                                       : 3
Format                                   : UTF-8
Codec ID                                 : S_TEXT/UTF8
Codec ID/Info                            : UTF-8 Plain Text
Duration                                 : 45 min 55 s
Bit rate                                 : 49 b/s
Count of elements                        : 477
Stream size                              : 16.7 KiB (0%)
Language                                 : English
Default                                  : Yes
Forced                                   : Yes


Screens: